<?xml version="1.0" standalone="no"?>
<!DOCTYPE svg PUBLIC "-//W3C//DTD SVG 1.1//EN" "http://www.w3.org/Graphics/SVG/1.1/DTD/svg11.dtd" >
<svg xmlns="http://www.w3.org/2000/svg">
<metadata>Generated by IcoMoon</metadata>
<defs>
<font id="icomoon" horiz-adv-x="1024">
<font-face units-per-em="1024" ascent="960" descent="-64" />
<missing-glyph horiz-adv-x="1024" />
<glyph unicode="&#x20;" horiz-adv-x="512" d="" />
<glyph unicode="&#xe900;" glyph-name="r-clear" d="M512 950.857c-283.569 0-512-228.431-512-512s228.431-512 512-512 512 232.369 512 512-232.369 512-512 512v0zM768 387.657h-512v102.4h512v-102.4z" />
<glyph unicode="&#xe901;" glyph-name="r-close" d="M521.309 457.475l-225.745 225.745-25.6-25.6 225.745-225.745-225.745-225.745 25.6-25.6 225.745 225.745 225.745-225.745 25.6 25.6-225.745 225.745 225.745 225.745-25.6 25.6-225.745-225.745zM512-73.143c-283.927 0-512 228.073-512 512s228.073 512 512 512 512-228.073 512-512-228.073-512-512-512z" />
<glyph unicode="&#xe902;" glyph-name="r-email" d="M102.4 804.571c-54.857 0-102.4-43.886-102.4-102.4v-530.286c0-54.857 47.543-98.743 102.4-98.743h819.2c54.857 0 102.4 43.886 102.4 102.4v526.629c0 58.514-47.543 102.4-102.4 102.4h-819.2zM921.6 603.428l-409.6-252.343-409.6 252.343v98.743l409.6-248.686 409.6 252.343v-102.4z" />
<glyph unicode="&#xe903;" glyph-name="r-info" d="M512 950.857c-281.6 0-512-230.4-512-512s230.4-512 512-512 512 230.4 512 512-230.4 512-512 512zM540.444 188.546h-85.333v398.222h85.333v-398.222zM540.444 643.657h-85.333v85.333h85.333v-85.333z" />
<glyph unicode="&#xe904;" glyph-name="r-print" d="M870.4 643.657h-716.8c-87.771 0-153.6-69.486-153.6-153.6v-303.543h204.8v-204.8h614.4v204.8h204.8v303.543c0 84.114-65.829 153.6-153.6 153.6v0zM716.8 84.114h-409.6v252.343h409.6v-252.343zM870.4 438.857c-29.257 0-51.2 21.943-51.2 51.2s21.943 51.2 51.2 51.2 51.2-21.943 51.2-51.2c0-29.257-21.943-51.2-51.2-51.2v0zM819.2 896h-614.4v-204.8h614.4v204.8z" />
<glyph unicode="&#xe905;" glyph-name="r-user" d="M512 950.857c-283.927 0-512-228.073-512-512s228.073-512 512-512 512 232.727 512 512-232.727 512-512 512v0zM512 797.257c88.436 0 153.6-65.164 153.6-153.6s-65.164-153.6-153.6-153.6-153.6 65.164-153.6 153.6 65.164 153.6 153.6 153.6v0zM512 71.148c-130.327 0-242.036 65.164-307.2 162.909 0 102.4 204.8 158.255 307.2 158.255s307.2-55.855 307.2-158.255c-65.164-97.745-176.873-162.909-307.2-162.909v0z" />
<glyph unicode="&#xe906;" glyph-name="r-arrow-left" horiz-adv-x="530" d="M529.965 938.282l-12.575 12.575-512-512 512-512 12.575 12.575-499.425 499.425z" />
<glyph unicode="&#xe907;" glyph-name="r-arrow-right" horiz-adv-x="530" d="M0-60.568l12.575-12.575 512 512-512 512-12.575-12.575 499.425-499.425z" />
<glyph unicode="&#xe908;" glyph-name="pinterest" horiz-adv-x="768" d="M-4.267 588.19c0-98.133 38.4-187.733 119.467-221.867 12.8-4.267 25.6 0 29.867 12.8 4.267 8.533 8.533 34.133 12.8 46.933s4.267 21.333-8.533 34.133c-25.6 29.867-42.667 64-42.667 115.2 0 145.067 110.933 277.333 281.6 277.333 153.6 0 238.933-93.867 238.933-221.867 0-166.4-72.533-307.2-183.467-307.2-59.733 0-106.667 51.2-89.6 110.933 17.067 72.533 51.2 153.6 51.2 204.8 0 46.933-25.6 85.333-76.8 85.333-59.733 0-110.933-64-110.933-149.333 0-55.467 17.067-89.6 17.067-89.6l-72.533-315.733c-21.333-93.867-4.267-209.067 0-221.867 0-8.533 8.533-8.533 12.8-4.267 4.267 8.533 81.067 98.133 102.4 187.733 8.533 25.6 38.4 157.867 38.4 157.867 21.333-38.4 76.8-72.533 140.8-72.533 183.467 0 311.467 170.667 311.467 396.8 0 170.667-145.067 332.8-362.667 332.8-273.067 4.267-409.6-192-409.6-358.4v0z" />
<glyph unicode="&#xe909;" glyph-name="r-magnify" d="M378.88 305.737c-143.36 0-261.12 117.76-261.12 261.12 0 0 0 0 0 0 0 148.48 117.76 261.12 261.12 261.12s261.12-117.76 261.12-261.12-112.64-261.12-261.12-261.12zM732.16 305.737h-46.080l-20.48 20.48c56.32 66.56 92.16 153.6 92.16 245.76 0 209.92-168.96 378.88-378.88 378.88s-378.88-168.96-378.88-378.88 168.96-378.88 378.88-378.88c92.16 0 179.2 35.84 245.76 92.16l15.36-15.36v-46.080l291.84-291.84 87.040 87.040-286.72 286.72z" />
<glyph unicode="&#xe90a;" glyph-name="r-add" d="M1024 472.99h-477.867v477.867h-68.267v-477.867h-477.867v-68.267h477.867v-477.867h68.267v477.867h477.867z" />
<glyph unicode="&#xe90b;" glyph-name="r-edit" d="M987.429 709.486c21.943 21.943 21.943 58.514 0 80.457v0l-131.657 131.657c-21.943 21.943-58.514 21.943-80.457 0v0l-95.086-102.4 204.8-204.8 102.4 95.086zM14.629 153.6v-204.8h204.8l607.086 607.086-204.8 204.8-607.086-607.086z" />
<glyph unicode="&#xe90c;" glyph-name="r-delete" d="M936.229 782.628l-87.771 87.771-336.457-343.771-343.771 336.457-80.457-80.457 336.457-343.771-343.771-343.771 87.771-87.771 343.771 343.771 343.771-343.771 87.771 87.771-343.771 343.771 336.457 343.771z" />
<glyph unicode="&#xe90d;" glyph-name="r-move" d="M374.414 847.104l-180.441-180.441h135.33v-315.771h90.22v315.771h135.33zM690.185 215.562v315.771h-90.22v-315.771h-135.33l180.441-180.441 180.441 180.441z" />
<glyph unicode="&#xe90e;" glyph-name="r-thumb" horiz-adv-x="1138" d="M237.449 357.234c-4.947-24.734-14.841-49.469-19.787-74.203-4.947-29.681-4.947-59.362 0-89.043 9.894-44.522 49.469-74.203 93.99-74.203 44.522-4.947 84.097 4.947 123.671 19.787 79.15 29.681 148.406 74.203 212.715 128.618 0 0 4.947 4.947 4.947 4.947-24.734 19.787-44.522 44.522-69.256 64.309 0 0 0 4.947 4.947 4.947 123.671 24.734 242.396 54.415 366.068 79.15-24.734-123.671-54.415-247.343-79.15-371.014-4.947 4.947-9.894 9.894-14.841 9.894-19.787 19.787-39.575 39.575-59.362 59.362-4.947 4.947-9.894 4.947-19.787 0-54.415-39.575-103.884-79.15-158.3-113.778-69.256-39.575-143.459-69.256-222.609-84.097-49.469-9.894-98.937-9.894-148.406 4.947-74.203 34.628-118.725 84.097-133.565 163.246-14.841 84.097 4.947 163.246 34.628 237.449 14.841 34.628 14.841 29.681 49.469 29.681 9.894 0 24.734 0 34.628 0zM529.314 787.611c103.884 79.15 217.662 143.459 351.227 158.3 39.575 4.947 84.097 4.947 123.671-4.947 74.203-24.734 118.725-79.15 133.565-153.353s0-143.459-24.734-212.715c0-4.947-4.947-9.894-9.894-9.894-74.203-14.841-148.406-34.628-227.556-49.469 0 0-4.947 0-9.894 0 4.947 4.947 4.947 9.894 9.894 14.841 29.681 49.469 54.415 103.884 69.256 163.246 4.947 24.734 4.947 49.469 4.947 74.203-19.787 49.469-59.362 84.097-118.725 84.097-44.522 0-89.043-9.894-133.565-29.681-9.894-4.947-24.734-9.894-34.628-14.841-24.734-14.841-49.469-19.787-74.203-14.841-14.841 0-39.575-4.947-59.362-4.947zM702.454 574.896c-4.947-19.787-4.947-49.469-14.841-74.203-14.841-49.469-49.469-74.203-98.937-74.203-44.522 0-79.15 24.734-98.937 74.203-14.841 49.469-14.841 103.884 0 153.353 19.787 59.362 74.203 89.043 128.618 69.256 44.522-14.841 59.362-49.469 69.256-89.043 9.894-14.841 9.894-34.628 14.841-59.362zM638.145 579.843c-4.947 24.734-9.894 49.469-14.841 74.203-4.947 14.841-14.841 29.681-34.628 29.681s-24.734-14.841-29.681-29.681c-14.841-49.469-14.841-98.937 0-148.406 4.947-19.787 19.787-29.681 34.628-29.681 19.787 0 29.681 14.841 34.628 29.681 0 24.734 4.947 49.469 9.894 74.203zM420.483 728.248c0-4.947 0-4.947 0-4.947 0-14.841 4.947-29.681 0-39.575-4.947-4.947-19.787-4.947-34.628-4.947-34.628-9.894-69.256-19.787-84.097-54.415 0-4.947 0-14.841-4.947-19.787 19.787 14.841 39.575 19.787 64.309 19.787 44.522 0 84.097-34.628 89.043-79.15 4.947-69.256-39.575-113.778-89.043-118.725-64.309-9.894-113.778 29.681-128.618 93.99-9.894 69.256 0 128.618 59.362 173.14 39.575 29.681 79.15 34.628 128.618 34.628zM385.855 530.374c0 24.734-9.894 44.522-29.681 49.469-34.628 9.894-69.256-19.787-59.362-59.362 4.947-29.681 24.734-49.469 49.469-44.522 24.734 0 39.575 19.787 39.575 54.415 0-4.947 0 0 0 0zM14.841 490.799c19.787-4.947 39.575-9.894 59.362-14.841 9.894 0 24.734 0 34.628 4.947 14.841 4.947 24.734 14.841 29.681 34.628 0 19.787-4.947 29.681-24.734 34.628-14.841 9.894-29.681 9.894-49.469 9.894-9.894 4.947-14.841 4.947-14.841 19.787 0 9.894 0 19.787 0 29.681 9.894 0 19.787 0 29.681 0 14.841 4.947 24.734 4.947 39.575 9.894 19.787 14.841 19.787 39.575-4.947 49.469-19.787 9.894-34.628 4.947-54.415 0-14.841 0-24.734 0-39.575-4.947-4.947 14.841-4.947 24.734-9.894 39.575 0 4.947 4.947 9.894 4.947 9.894 44.522 19.787 84.097 24.734 128.618 9.894 29.681-9.894 49.469-24.734 49.469-59.362 4.947-29.681-9.894-54.415-39.575-69.256 0 0-4.947-4.947-9.894-4.947 4.947 0 9.894-4.947 14.841-4.947 24.734-9.894 44.522-29.681 49.469-54.415 0-34.628-9.894-59.362-34.628-79.15-14.841-9.894-34.628-19.787-54.415-24.734-39.575-9.894-74.203-4.947-108.831 9.894-9.894 4.947-14.841 9.894-9.894 19.787 4.947 14.841 9.894 24.734 14.841 34.628zM796.444 609.524c-39.575 0-69.256 29.681-69.256 64.309 0 39.575 29.681 64.309 69.256 64.309s69.256-29.681 69.256-64.309c0-34.628-29.681-64.309-69.256-64.309zM831.072 673.833c0 19.787-14.841 39.575-34.628 39.575s-34.628-14.841-34.628-34.628c0-19.787 14.841-34.628 34.628-34.628 19.787-4.947 34.628 9.894 34.628 29.681z" />
<glyph unicode="&#xe90f;" glyph-name="r-popup-thumb" horiz-adv-x="1950" d="M1590.857 676.571c109.714-42.667 213.333-85.333 292.571-164.571 91.429-91.429 91.429-207.238 6.095-304.762-60.952-67.048-140.19-115.81-219.429-152.381-121.905-54.857-249.905-85.333-384-103.619-128-18.286-256-24.381-384-18.286-219.429 6.095-432.762 42.667-633.905 140.19-79.238 24.381-146.286 67.048-201.143 128-91.429 103.619-91.429 219.429 12.19 316.952 91.429 91.429 213.333 134.095 335.238 176.762 0-18.286 0-36.571 0-54.857 0-6.095-6.095-12.19-12.19-18.286-36.571-18.286-67.048-36.571-91.429-60.952-67.048-54.857-67.048-121.905 0-182.857 54.857-48.762 128-79.238 195.048-97.524 109.714-36.571 231.619-48.762 347.429-54.857 128-6.095 256-6.095 384 12.19 115.81 18.286 225.524 42.667 329.143 91.429 36.571 18.286 73.143 42.667 97.524 73.143 36.571 48.762 36.571 91.429 0 140.19-18.286 18.286-36.571 36.571-60.952 54.857-12.19 6.095-18.286 18.286-18.286 30.476 6.095 12.19 6.095 30.476 6.095 48.762zM1182.476 707.047c0 48.762 6.095 97.524 30.476 146.286 30.476 54.857 79.238 85.333 140.19 85.333s103.619-30.476 128-85.333c42.667-97.524 42.667-195.048 0-292.571-24.381-54.857-73.143-85.333-134.095-85.333s-109.714 30.476-134.095 79.238c-24.381 48.762-30.476 97.524-30.476 152.381zM1280 682.667c6.095-18.286 12.19-54.857 18.286-97.524 6.095-24.381 24.381-42.667 48.762-42.667s42.667 18.286 48.762 42.667c6.095 24.381 12.19 54.857 12.19 79.238 0 48.762-6.095 91.429-12.19 140.19 0 6.095-6.095 18.286-12.19 24.381-12.19 18.286-24.381 30.476-42.667 30.476s-30.476-12.19-42.667-30.476c-12.19-42.667-12.19-85.333-18.286-146.286zM1091.048 926.476c0-18.286 0-36.571 0-54.857 0-12.19-6.095-18.286-18.286-18.286-24.381 0-48.762-6.095-73.143-12.19-42.667-12.19-79.238-36.571-91.429-85.333 0-6.095 0-12.19-6.095-18.286 36.571 30.476 73.143 42.667 109.714 36.571 67.048-6.095 115.81-54.857 121.905-115.81 12.19-103.619-48.762-176.762-152.381-188.952-60.952-6.095-128 18.286-164.571 91.429-48.762 91.429-24.381 262.095 97.524 335.238 48.762 24.381 121.905 36.571 176.762 30.476zM889.905 633.905c6.095-24.381 12.19-42.667 24.381-60.952 30.476-42.667 91.429-30.476 103.619 12.19 6.095 18.286 6.095 42.667 6.095 67.048-6.095 36.571-36.571 54.857-73.143 54.857-30.476-6.095-54.857-36.571-60.952-73.143zM463.238 566.857c42.667-6.095 79.238-18.286 115.81-18.286 18.286 0 36.571 6.095 48.762 18.286 36.571 24.381 30.476 73.143-12.19 97.524-18.286 12.19-42.667 12.19-60.952 18.286-12.19 0-24.381 0-36.571 0 0 24.381 0 48.762 0 67.048 18.286 0 42.667 6.095 60.952 6.095 6.095 0 12.19 0 18.286 6.095 30.476 12.19 42.667 30.476 36.571 48.762 0 24.381-24.381 42.667-48.762 42.667-36.571-6.095-73.143-12.19-109.714-18.286-6.095 18.286-12.19 36.571-18.286 60.952 48.762 24.381 103.619 36.571 158.476 30.476 24.381 0 48.762-12.19 67.048-18.286 36.571-18.286 60.952-48.762 60.952-91.429s-18.286-73.143-60.952-91.429c-6.095 0-12.19-6.095-18.286-12.19 0-6.095 6.095-6.095 12.19-6.095 42.667-12.19 73.143-42.667 79.238-85.333 6.095-48.762-12.19-91.429-48.762-115.81-54.857-42.667-115.81-42.667-176.762-36.571-24.381 0-48.762 12.19-73.143 18.286-12.19 6.095-12.19 12.19-12.19 24.381 6.095 18.286 12.19 42.667 18.286 54.857zM1566.476 847.238c0 54.857 42.667 103.619 103.619 103.619 54.857 0 103.619-48.762 103.619-97.524 0-54.857-48.762-103.619-103.619-103.619-60.952 0-103.619 42.667-103.619 97.524zM1718.857 847.238c0 30.476-18.286 54.857-48.762 54.857s-54.857-24.381-54.857-54.857c0-30.476 24.381-54.857 54.857-54.857 24.381 0 48.762 24.381 48.762 54.857z" />
<glyph unicode="&#xe910;" glyph-name="r-go-arrow-right" horiz-adv-x="554" d="M49.951-73.143l-44.956 44.956 464.546 464.546-469.541 469.541 44.956 44.956 509.502-514.498-504.507-509.502z" />
<glyph unicode="&#xe926;" glyph-name="angle-down" d="M797.143 530.286q0-7.429-5.714-13.143l-266.286-266.286q-5.714-5.714-13.143-5.714t-13.143 5.714l-266.286 266.286q-5.714 5.714-5.714 13.143t5.714 13.143l28.571 28.571q5.714 5.714 13.143 5.714t13.143-5.714l224.571-224.571 224.571 224.571q5.714 5.714 13.143 5.714t13.143-5.714l28.571-28.571q5.714-5.714 5.714-13.143z" />
<glyph unicode="&#xe927;" glyph-name="angle-left" d="M687.429 640q0-7.429-5.714-13.143l-224.571-224.571 224.571-224.571q5.714-5.714 5.714-13.143t-5.714-13.143l-28.571-28.571q-5.714-5.714-13.143-5.714t-13.143 5.714l-266.286 266.286q-5.714 5.714-5.714 13.143t5.714 13.143l266.286 266.286q5.714 5.714 13.143 5.714t13.143-5.714l28.571-28.571q5.714-5.714 5.714-13.143z" />
<glyph unicode="&#xe928;" glyph-name="angle-right" d="M669.143 402.286q0-7.429-5.714-13.143l-266.286-266.286q-5.714-5.714-13.143-5.714t-13.143 5.714l-28.571 28.571q-5.714 5.714-5.714 13.143t5.714 13.143l224.571 224.571-224.571 224.571q-5.714 5.714-5.714 13.143t5.714 13.143l28.571 28.571q5.714 5.714 13.143 5.714t13.143-5.714l266.286-266.286q5.714-5.714 5.714-13.143z" />
<glyph unicode="&#xe929;" glyph-name="angle-up" d="M797.143 274.286q0-7.429-5.714-13.143l-28.571-28.571q-5.714-5.714-13.143-5.714t-13.143 5.714l-224.571 224.571-224.571-224.571q-5.714-5.714-13.143-5.714t-13.143 5.714l-28.571 28.571q-5.714 5.714-5.714 13.143t5.714 13.143l266.286 266.286q5.714 5.714 13.143 5.714t13.143-5.714l266.286-266.286q5.714-5.714 5.714-13.143z" />
<glyph unicode="&#xe93f;" glyph-name="facebook" d="M767.429 944v-150.857h-89.714q-49.143 0-66.286-20.571t-17.143-61.714v-108h167.429l-22.286-169.143h-145.143v-433.714h-174.857v433.714h-145.714v169.143h145.714v124.571q0 106.286 59.429 164.857t158.286 58.571q84 0 130.286-6.857z" />
<glyph unicode="&#xe944;" glyph-name="instagram" d="M851.429 136v370.286h-77.143q11.429-36 11.429-74.857 0-72-36.571-132.857t-99.429-96.286-137.143-35.429q-112.571 0-192.571 77.429t-80 187.143q0 38.857 11.429 74.857h-80.571v-370.286q0-14.857 10-24.857t24.857-10h610.857q14.286 0 24.571 10t10.286 24.857zM689.143 440.571q0 70.857-51.714 120.857t-124.857 50q-72.571 0-124.286-50t-51.714-120.857 51.714-120.857 124.286-50q73.143 0 124.857 50t51.714 120.857zM851.429 646.286v94.286q0 16-11.429 27.714t-28 11.714h-99.429q-16.571 0-28-11.714t-11.429-27.714v-94.286q0-16.571 11.429-28t28-11.429h99.429q16.571 0 28 11.429t11.429 28zM950.857 765.143v-652.571q0-46.286-33.143-79.429t-79.429-33.143h-652.571q-46.286 0-79.429 33.143t-33.143 79.429v652.571q0 46.286 33.143 79.429t79.429 33.143h652.571q46.286 0 79.429-33.143t33.143-79.429z" />
<glyph unicode="&#xe946;" glyph-name="linkedin" d="M272.571 593.714v-566.286h-188.571v566.286h188.571zM284.571 768.571q0.571-41.714-28.857-69.714t-77.429-28h-1.143q-46.857 0-75.429 28t-28.571 69.714q0 42.286 29.429 70t76.857 27.714 76-27.714 29.143-70zM950.857 352v-324.571h-188v302.857q0 60-23.143 94t-72.286 34q-36 0-60.286-19.714t-36.286-48.857q-6.286-17.143-6.286-46.286v-316h-188q1.143 228 1.143 369.714t-0.571 169.143l-0.571 27.429h188v-82.286h-1.143q11.429 18.286 23.429 32t32.286 29.714 49.714 24.857 65.429 8.857q97.714 0 157.143-64.857t59.429-190z" />
<glyph unicode="&#xe95e;" glyph-name="youtube" d="M628 240v-120.571q0-38.286-22.286-38.286-13.143 0-25.714 12.571v172q12.571 12.571 25.714 12.571 22.286 0 22.286-38.286zM821.143 239.428v-26.286h-51.429v26.286q0 38.857 25.714 38.857t25.714-38.857zM269.143 364h61.143v53.714h-178.286v-53.714h60v-325.143h57.143v325.143zM433.714 38.857h50.857v282.286h-50.857v-216q-17.143-24-32.571-24-10.286 0-12 12-0.571 1.714-0.571 20v208h-50.857v-223.429q0-28 4.571-41.714 6.857-21.143 33.143-21.143 27.429 0 58.286 34.857v-30.857zM678.857 123.428v112.571q0 41.714-5.143 56.571-9.714 32-40.571 32-28.571 0-53.143-30.857v124h-50.857v-378.857h50.857v27.429q25.714-31.429 53.143-31.429 30.857 0 40.571 31.429 5.143 15.429 5.143 57.143zM872 129.143v7.429h-52q0-29.143-1.143-34.857-4-20.571-22.857-20.571-26.286 0-26.286 39.429v49.714h102.286v58.857q0 45.143-15.429 66.286-22.286 29.143-60.571 29.143-38.857 0-61.143-29.143-16-21.143-16-66.286v-98.857q0-45.143 16.571-66.286 22.286-29.143 61.714-29.143 41.143 0 61.714 30.286 10.286 15.429 12 30.857 1.143 5.143 1.143 33.143zM524.571 650.857v120q0 39.429-24.571 39.429t-24.571-39.429v-120q0-40 24.571-40t24.571 40zM935.429 221.714q0-133.714-14.857-200-8-33.714-33.143-56.571t-58.286-26.286q-105.143-12-317.143-12t-317.143 12q-33.143 3.429-58.571 26.286t-32.857 56.571q-14.857 64-14.857 200 0 133.714 14.857 200 8 33.714 33.143 56.571t58.857 26.857q104.571 11.429 316.571 11.429t317.143-11.429q33.143-4 58.571-26.857t32.857-56.571q14.857-64 14.857-200zM365.143 950.857h58.286l-69.143-228v-154.857h-57.143v154.857q-8 42.286-34.857 121.143-21.143 58.857-37.143 106.857h60.571l40.571-150.286zM576.571 760.571v-100q0-46.286-16-67.429-21.143-29.143-60.571-29.143-38.286 0-60 29.143-16 21.714-16 67.429v100q0 45.714 16 66.857 21.714 29.143 60 29.143 39.429 0 60.571-29.143 16-21.143 16-66.857zM768 853.143v-285.143h-52v31.429q-30.286-35.429-58.857-35.429-26.286 0-33.714 21.143-4.571 13.714-4.571 42.857v225.143h52v-209.714q0-18.857 0.571-20 1.714-12.571 12-12.571 15.429 0 32.571 24.571v217.714h52z" />
</font>
</defs>
</svg>
